Софт-Архив

скачать другой я торрент

Рейтинг: 4.5/5.0 (25 проголосовавших)

Категория: Торрент-файлы

Описание

Скачать Другая я

Другая я / Another Me (2013) WEB-DLRip Другая я / Another Me (2013) WEB-DLRip

КРОЛ_ь 29.10.2014 в 19:46

[ Скачать с сервера (15.2Kb) ]
Название. Другая я
Оригинальное название. Another Me
Год выхода. 2013
Жанр. триллер, детектив
Режиссер. Изабель Койшет
В ролях. Софи Тёрнер, Джонатан Риз Майерс, Клер Форлани, Грегг Салкин, Рис Иванс, Ивана Бакеро, Джеральдин Чаплин, Леонор Уотлинг, Сара Грегори, Мелани Уолтерс

Описание: Красивую молодую девушку преследует ее тайное прошлое.

Выпущено. Великобритания, Испания
Продолжительность. 01:24:33
Озвучивание: Любительское (многоголосое) [ViruseProject]

Файл
Формат. AVI (XviD)
Качество. WEB-DLRip
Видео. 2074 kb/s, 720x400
Аудио. AC3, 384 kb/s (6 ch)

скачать другой я торрент:

  • скачать
  • скачать
  • Другие статьи

    Скачать фильм Другая я (2013) HDRip бесплатно

    Фильм: Другая я
    Оригинальное название: Another Me
    Год выхода: 2013
    Жанр: мистика, триллер. детектив
    Режиссер: Изабель Койшет
    В ролях: Софи Тёрнер, Джонатан Риз Майерс, Клер Форлани, Грегг Салкин, Рис Иванс, Ивана Бакеро, Джеральдин Чаплин, Леонор Уотлинг, Сара Грегори, Мелани Уолтерс
    Выпущено: Великобритания, Испания
    Продолжительность: 01:24:33
    Перевод: Любительский (многоголосый) [ViruseProject]

    Качество: HDRip
    Размер: 1.37 Gb

    О фильме. Жизнь - непростая, тяжелая, непредсказуемая штука и может, что угодно случиться. Сюжетная линия мистического триллера "Другая я " крутится вокруг обворожительной, привлекательной, молодой красавицы Фей, родившейся в Англии, итак в непростой жизни которой неожиданно начинают происходить довольно необычные явления, чем-то похожие на паранормальные. Нормальная обыденная жизнь девушки резко рушится после того, как Фей начинает казаться, что ее пытается заменить загадочный "двойник", намеревающийся забрать все, что ей дорого. На киносайте FreshKino вы можете скачать бесплатные детективные фильмы хорошего качества с любого компьютера, планшета, даже с мобильного телефона с молниеносной скоростью и наслаждаться просмотром, но быстрота скачивания зависит от скорости вашего интернета.

    Трейлер фильма Другая я

    Кадры фильма Другая я

    Скачать Другая я / Another Me (2013) HDRip бесплатно бесплатно через торрент

    Скачать фильм Другая я

    Скачать фильм Другая я / Another Me (Изабель Койшет) [2013, триллер, детектив, BDRip] MVO - торрент

    Другая я / Another Me

    Перевод: Любительский (многоголосый закадровый) ViruseProject. субтитры: отсутствуют
    Формат: BDRip, AVI, XviD, AC3
    Страна: Великобритания, Испания
    Режиссер: Изабель Койшет
    Жанр: триллер. детектив
    Продолжительность: 01:24:35
    Год выпуска: 2013
    В ролях: Софи Тёрнер. Джонатан Риз Майерс, Клер Форлани. Грегг Салкин. Рис Иванс. Ивана Бакеро. Джеральдин Чаплин. Леонор Уотлинг. Сара Грегори. Мелани Уолтерс
    Описание: Фэй - неуверенная в себе ученица старшей школы - живет тихой незаметной жизнью, пока неожиданно не получает роль в постановке школьного театра. Ей предстоит сыграть Леди Макбет – блистательную и драматическую личность шекспировской пьесы. Благодаря возросшей популярности жизнь Фэй быстро превращается в идеальную. Но она кажется мечтой подростка лишь на первый взгляд – Фэй подозревает, что где-то рядом с ней скрывается таинственный двойник, который намерен украсть не только ее жизнь, но вместе с ней и саму ее личность.

    Рейтинг.
    Видео: 720x384 (1.88:1), 23.976 fps, XviD build 73

    1660 kbps avg, 0.25 bit/pixel
    Аудио#1: Русский: 48 kHz, AC3 Dolby Digital, 3/2 (L,C,R,l,r) + LFE ch,

    384 kbps [Любительский (многоголосый)]
    Аудио#2: Английский: 48 kHz, AC3 Dolby Digital, 3/2 (L,C,R,l,r) + LFE ch,

    384 kbps [Оригинал]

    Drugaya.ya.L.2013.BDRip.Deadmauvlad.avi
    Формат : AVI
    Формат/Информация : Audio Video Interleave
    Размер файла : 1,44 Гбайт
    Продолжительность : 1 ч. 24 м.
    Общий поток : 2443 Кбит/сек
    Название фильма : Drugaya.ya.L.2013.BDRip.Deadmauvlad
    Режиссёр : Deadmauvlad
    Жанр : драма, мелодрама, комедия
    Программа кодирования : VirtualDubMod 1.5.10.3 | www.virtualdub-fr.org || (build 2550/release)
    Формат оригинала/Имя : Фильм
    Правообладатель : Goldenshara

    Видео
    Идентификатор : 0
    Формат : MPEG-4 Visual
    Профиль формата : Advanced Simple@L5
    Параметр BVOP формата : 1
    Параметр QPel формата : Нет
    Параметр GMC формата : Без точки перехода
    Параметр матрицы формата : Выборочная
    Идентификатор кодека : XVID
    Идентификатор кодека/Подсказка : XviD
    Продолжительность : 1 ч. 24 м.
    Битрейт : 1661 Кбит/сек
    Ширина : 720 пикселей
    Высота : 384 пикселя
    Соотношение сторон : 1,85:1
    Частота кадров : 23,976 кадра/сек
    Цветовое пространство : YUV
    Субдискретизация насыщенности : 4:2:0
    Битовая глубина : 8 бит
    Тип развёртки : Прогрессивная
    Метод сжатия : С потерями
    Бит/(Пиксели*Кадры) : 0.251
    Размер потока : 1004 Мбайт (68%)
    Библиотека кодирования : XviD 73

    Аудио #1
    Идентификатор : 1
    Формат : AC-3
    Формат/Информация : Audio Coding 3
    Расширение режима : CM (complete main)
    Параметр Endianness формата : Big
    Идентификатор кодека : 2000
    Продолжительность : 1 ч. 24 м.
    Вид битрейта : Постоянный
    Битрейт : 384 Кбит/сек
    Каналы : 6 каналов
    Расположение каналов : Front: L C R, Side: L R, LFE
    Частота : 48,0 КГц
    Битовая глубина : 16 бит
    Метод сжатия : С потерями
    Размер потока : 232 Мбайт (16%)
    Выравнивание : Разделение по промежуткам
    Продолжительность промежутка : 42 мс. (1,00 видеокадр)
    Время предзагрузки промежутка : 500 мс.

    Аудио #2
    Идентификатор : 2
    Формат : AC-3
    Формат/Информация : Audio Coding 3
    Расширение режима : CM (complete main)
    Параметр Endianness формата : Big
    Идентификатор кодека : 2000
    Продолжительность : 1 ч. 24 м.
    Вид битрейта : Постоянный
    Битрейт : 384 Кбит/сек
    Каналы : 6 каналов
    Расположение каналов : Front: L C R, Side: L R, LFE
    Частота : 48,0 КГц
    Битовая глубина : 16 бит
    Метод сжатия : С потерями
    Размер потока : 232 Мбайт (16%)
    Выравнивание : Разделение по промежуткам
    Продолжительность промежутка : 42 мс. (1,00 видеокадр)
    Время предзагрузки промежутка : 500 мс.






    Скачать торрент Другая я

    / Глаза панды / Another Me (2013/HDRip) от bittracker, L

    Информация о фильме
    Название: Другая я / Глаза панды
    Оригинальное название: Another Me
    Год выхода: 2013
    Жанр: Мистика, Триллер, Детектив
    Режиссер: Изабель Койшет / Isabel Coixet
    В ролях: Софи Тернер, Джонатан Риз Майерс, Клэр Форлани, Грегг Салкин, Рис Иванс, Ивана Бакеро, Джеральдин Чаплин, Леонор Уотлинг, Сара Грегори, Мелани Уолтерс.

    Сюжет фильма:
    Каждая фотография - это память о каком-то мгновении из жизни. Но что, если ты видишь момент, которого никогда не проживал? Кто-то явно следит за тобой. Чего-то выжидает. Возможно, хочет забрать твою драгоценную жизнь себе. Очаровательную молодую девушку преследует её таинственное прошлое.

    [kinopoisk]577597[/kinopoisk]

    Страна: Великобритания, Испания / Rainy Day Films, Tornasol Films
    Продолжительность: 01:24:33
    Перевод: Любительский (многоголосый закадровый) ViruseProject

    Файл
    Кодек: XviD (AVI)
    Качество: HDRip
    Видео: 656x368 (1.78:1), 23.976 fps,

    1074 kbps avg, 0.19 bit/pixel
    Звук: 48 kHz, MPEG Layer 3, 2 ch,

    [screens]
    http://i68.fastpic.ru/big/2014/1029/9e/fde0b7c4bf56c02a50d0d2771f03da9e.png
    http://i63.fastpic.ru/big/2014/1029/4b/0c31438b9251f8f0c31bd379b991984b.png
    http://i68.fastpic.ru/big/2014/1029/b5/c6372894fb9dad3d5e5b5c64e45ce0b5.png
    [/screens]

    Раздача: 733.16 Мб. torrent файл: 14.9Kb

    Другая я (2013) скачать через торрент бесплатно

    Другая я (2013) скачать торрент


    Название: Другая я
    Оригинальное название: Another Me
    Год выхода: 2013
    Жанр: триллер, детектив
    Режиссер: Изабель Койшет
    В ролях: Софи Тернер, Джонатан Риз Майерс, Клэр Форлани, Грегг Салкин, Рис Иванс, Ивана Бакеро, Джеральдин Чаплин, Леонор Уотлинг, Сара Грегори, Мелани Уолтерс
    Выпущено: Великобритания, Испания
    Продолжительность: 01:24:33
    Озвучивание: Любительское (многоголосое) [ViruseProject]

    Качество: WEB-DLRip
    Размер: 1.46 GB

    Описание: Сюжет вращается вокруг молодой английской девушки по имени Фей. Вдруг в ее жизни начинают происходить очень странные явления, сродни паранормальным. Ее, казалось бы, идеальная жизнь быстро идет под откос, когда она начинает подозревать, что ее преследует таинственный "двойник", который пытается украсть не только ее личность, но и жизнь.

    Трейлер из фильма

    Кадры из фильма