Софт-Архив

дискография веселые ребята скачать торрент

Рейтинг: 4.7/5.0 (18 проголосовавших)

Категория: Торрент-файлы

Описание

Весёлые Ребята - дискография 1970-2002 mp3, 192-320 - Торрент

Страна: СССР
Жанр: Ретро-Поп
Год выпуска: 1970 - 2002
Формат: MP3
Битрейт: VBR 192-320
Продолжительность: 08:11:43

1970-1980 Люди встречаются

1 Любовь - огромная страна
2 Расставание
3 Когда молчим вдвоем
4 А мне то зачем
5 Качели
6 Дружить нам надо
7 Встречи
8 Посреди зимы
9 Летние каникулы
10 На чем стоит любовь
11 Как прекрасен этот мир
12 Я к тебе не подойду
13 Вот и все
14 В синем омуте
15 Если любишь ты
16 Ни минуты покоя
17 Люди встречаются

1975 Любовь - огромная страна

01 - Любовь - огромная страна
02 - Я к тебе не подойду
03 - Отчего
04 - Вечная весна
05 - Что такого
06 - Это - Москва
07 - Наша песня
08 - Качели
09 - А мне - то зачем
10 - Скорый поезд
11 - Всегда вдали

1977 Дружить нам надо

01 - Напиши мне письмо
02 - Наш дом
03 - Летние каникулы
04 - В синем омуте
05 - Встреча
06 - Песенка для всех
07 - Мамина пластинка
08 - Дальняя песня
09 - Проходят годы
10 - Дружить нам надо
11 - Двадцать третий век (bonus)

1980 Музыкальный глобус

1. Никогда не поверю (Bjorklund -Forsey - Jay. русский текст В. Лугового)
2. Мона Лиза (Schenker - Mogg)
3. Уходило лето (Soja - русский текст В. Лугового)
4. Люба - Любовь (P. Curtis -русский текст В. Харитонова)
5. Школьная пора (S. Wonder - русский текст В. Харитонова)
6. Нет я не жду (C. Norman - P. Spencer. русский текст В. Лугового)
7. Что ты хочешь мне сказать (W. Theunissen -русский текст В. Лугового)
8. В последний раз (J. L. Perales -русский текст В. Лугового)
9. Доброте предела нет (R. Glover - E. Hardin. русский текст В. Лугового)

1985 Дискозал (магнитоальбом)

1. Кто, кто
2. Я парю
3. Дискозал
4. Я попал на бал
5. Колесо
6. Клоун
7. Томится в ожиданьи зал
8. Все твердят
9. Бумеранг
10. Под солнцем и луной
11. Орех
12. Я не знаю

1986 Автомобили (магнитоальбом)

1. Автомобили
2. Чертаново
3. Не уходи
4. Песней разбужу любовь
5. Летний круиз
6. В шутовском королевстве
7. Бологое
8. Баня
9. Шарманка играет
10. Сентябрь
11. Осень
12. Хочу все знать

1986 Я в танцах не силен (магнитоальбом)

1. Я в танцах не силен
2. Небывальщина
3. Треугольное сердце
4. Там, где нас нет
5. Эпизод
6. Вечер при свечах
7. Два вопроса
8. Любви моей
9. Остановись
10. Море
11. Соленое море

1. Автомобили (В. Матецкий - М. Шабров)
2. Вечер при свечах (Т. Петрененко - И. Шаферан)
3. Баня (Д. Тухманов - М. Танич)
4. Гранитный город (Р. Паулс - И. Резник)
5. Корабли (музыка и слова В. Матецкого)
6. Не волнуйтесь, тетя (В. Добрынин - Л. Дербенев)
7. Скоро (П. Слободкин - М. Шабров)
8. Жил в Африке слон (В. Матецкий. П. Слободкин - М. Шабров)
9. Чертаново (В. Матецкий - М. Танич)
10. Шутовское королевство (В. Матецкий - В. Сауткин)
11. Скажет девчонка (бонус)
12. Летайте самолётами Аэрофлота (бонус)

1988 Розовые розы (магнитоальбом)

1. Розовые розы
2. Пустыня
3. Родня
4. Звездочет
5. На Канарских островах
6. Клоун
7. Прогноз погоды
8. Чашка чая
9. Розита
10. Диета

1996 Песни Вячеслава Добрынина

1. На земле живет любовь
2. Ни минуты покоя
3. Мелочи жизни
4. Напиши мне письмо
5. Золотой ключик
6. Розита
7. Чашка чая
8. Люби меня, как я тебя
9. Хочу все знать
10. Бологое
11. Пришла пора
12. А дело было так
13. Рыжий клоун
14. Не волнуйтесь, тетя

2002 13 лет спустя

1 Любовь - огромная страна
2 Школьная пора
3 Мамина пластинка
4 Баня
5 Алешкина любовь
6 Ты ко мне не подходи
7 Напиши мне письмо
8 Когда молчим вдвоем
9 Если б не суббота
10 Люди встречаются
11 Бродячие артисты

  • Размер: 653.31 Mb
  • Файлов: 147
  • Сидеры были: 04.09.2017 05:11
Добавление комментария:

дискография веселые ребята скачать торрент:

  • скачать
  • скачать
  • Другие статьи

    Скачать Веселые ребята через торрент в хорошем качестве скачать фильм Веселые ребята 1934 торрент

    Веселые ребята через торрент Описание фильма Веселые ребята

    По иронии судьбы, талантливого пастуха-музыканта Костю Потехина из поселка Прозрачные Ключи приняли за модного заграничного дирижёра Фраскини. Простодушный Костя не растерялся и произвёл сенсацию в одесском мюзик-холле. Потом стал дирижeром джазового оркестра, а влюбленная в него домработница Анюта - певицей. Оркестр Кости начал готовиться к выступлению на сцене Большого театра.

    Веселые ребята трейлер Скачать Веселые ребята через торрент в хорошем качестве

    HDTV HD
    Подробнее

    Друзья! Огромная просьба, оставляйте свои комментарии, если скачали Веселые ребята через торрент. Внесите свою лепту в развитие сайта!

    Скачать музыка Весёлые Ребята - дискография 1970-2002 - ТОРРЕНТИНО - торрент трекер

    Весёлые Ребята - дискография 1970-2002 [mp3, 192-320]

    Весёлые Ребята (дискография 1970-2002)

    Страна: СССР
    Жанр: Ретро-Поп
    Год выпуска: 1970 - 2002
    Формат: MP3
    Битрейт: VBR 192-320
    Продолжительность: 08:11:43
    Трэклист:

    1970-1980 Люди встречаются

    1 Любовь - огромная страна
    2 Расставание
    3 Когда молчим вдвоем
    4 А мне то зачем
    5 Качели
    6 Дружить нам надо
    7 Встречи
    8 Посреди зимы
    9 Летние каникулы
    10 На чем стоит любовь
    11 Как прекрасен этот мир
    12 Я к тебе не подойду
    13 Вот и все
    14 В синем омуте
    15 Если любишь ты
    16 Ни минуты покоя
    17 Люди встречаются

    1975 Любовь - огромная страна

    01 - Любовь - огромная страна
    02 - Я к тебе не подойду
    03 - Отчего
    04 - Вечная весна
    05 - Что такого
    06 - Это - Москва
    07 - Наша песня
    08 - Качели
    09 - А мне - то зачем
    10 - Скорый поезд
    11 - Всегда вдали

    1977 Дружить нам надо

    01 - Напиши мне письмо
    02 - Наш дом
    03 - Летние каникулы
    04 - В синем омуте
    05 - Встреча
    06 - Песенка для всех
    07 - Мамина пластинка
    08 - Дальняя песня
    09 - Проходят годы
    10 - Дружить нам надо
    11 - Двадцать третий век (bonus)

    1980 Музыкальный глобус

    1. Никогда не поверю (Bjorklund -Forsey - Jay. русский текст В. Лугового)
    2. Мона Лиза (Schenker - Mogg)
    3. Уходило лето (Soja - русский текст В. Лугового)
    4. Люба - Любовь (P. Curtis -русский текст В. Харитонова)
    5. Школьная пора (S. Wonder - русский текст В. Харитонова)
    6. Нет я не жду (C. Norman - P. Spencer. русский текст В. Лугового)
    7. Что ты хочешь мне сказать (W. Theunissen -русский текст В. Лугового)
    8. В последний раз (J. L. Perales -русский текст В. Лугового)
    9. Доброте предела нет (R. Glover - E. Hardin. русский текст В. Лугового)

    1985 Дискозал (магнитоальбом)

    1. Кто, кто
    2. Я парю
    3. Дискозал
    4. Я попал на бал
    5. Колесо
    6. Клоун
    7. Томится в ожиданьи зал
    8. Все твердят
    9. Бумеранг
    10. Под солнцем и луной
    11. Орех
    12. Я не знаю

    1986 Автомобили (магнитоальбом)

    1. Автомобили
    2. Чертаново
    3. Не уходи
    4. Песней разбужу любовь
    5. Летний круиз
    6. В шутовском королевстве
    7. Бологое
    8. Баня
    9. Шарманка играет
    10. Сентябрь
    11. Осень
    12. Хочу все знать

    1986 Я в танцах не силен (магнитоальбом)

    1. Я в танцах не силен
    2. Небывальщина
    3. Треугольное сердце
    4. Там, где нас нет
    5. Эпизод
    6. Вечер при свечах
    7. Два вопроса
    8. Любви моей
    9. Остановись
    10. Море
    11. Соленое море
    1. Автомобили (В. Матецкий - М. Шабров)
    2. Вечер при свечах (Т. Петрененко - И. Шаферан)
    3. Баня (Д. Тухманов - М. Танич)
    4. Гранитный город (Р. Паулс - И. Резник)
    5. Корабли (музыка и слова В. Матецкого)
    6. Не волнуйтесь, тетя (В. Добрынин - Л. Дербенев)
    7. Скоро (П. Слободкин - М. Шабров)
    8. Жил в Африке слон (В. Матецкий. П. Слободкин - М. Шабров)
    9. Чертаново (В. Матецкий - М. Танич)
    10. Шутовское королевство (В. Матецкий - В. Сауткин)
    11. Скажет девчонка (бонус)
    12. Летайте самолётами Аэрофлота (бонус)

    1988 Розовые розы (магнитоальбом)

    1. Розовые розы
    2. Пустыня
    3. Родня
    4. Звездочет
    5. На Канарских островах
    6. Клоун
    7. Прогноз погоды
    8. Чашка чая
    9. Розита
    10. Диета

    1996 Песни Вячеслава Добрынина

    1. На земле живет любовь
    2. Ни минуты покоя
    3. Мелочи жизни
    4. Напиши мне письмо
    5. Золотой ключик
    6. Розита
    7. Чашка чая
    8. Люби меня, как я тебя
    9. Хочу все знать
    10. Бологое
    11. Пришла пора
    12. А дело было так
    13. Рыжий клоун
    14. Не волнуйтесь, тетя

    2002 13 лет спустя

    1 Любовь - огромная страна
    2 Школьная пора
    3 Мамина пластинка
    4 Баня
    5 Алешкина любовь
    6 Ты ко мне не подходи
    7 Напиши мне письмо
    8 Когда молчим вдвоем
    9 Если б не суббота
    10 Люди встречаются
    11 Бродячие артисты

    Похожие торренты

    Весёлые Ребята - дискография (1970-2002) mp3, MB

    1970-1980 Люди встречаются

    1 Любовь - огромная страна
    2 Расставание
    3 Когда молчим вдвоем
    4 А мне то зачем
    5 Качели
    6 Дружить нам надо
    7 Встречи
    8 Посреди зимы
    9 Летние каникулы
    10 На чем стоит любовь
    11 Как прекрасен этот мир
    12 Я к тебе не подойду
    13 Вот и все
    14 В синем омуте
    15 Если любишь ты
    16 Ни минуты покоя
    17 Люди встречаются

    1975 Любовь - огромная страна

    01 - Любовь - огромная страна
    02 - Я к тебе не подойду
    03 - Отчего
    04 - Вечная весна
    05 - Что такого
    06 - Это - Москва
    07 - Наша песня
    08 - Качели
    09 - А мне - то зачем
    10 - Скорый поезд
    11 - Всегда вдали

    1977 Дружить нам надо

    01 - Напиши мне письмо
    02 - Наш дом
    03 - Летние каникулы
    04 - В синем омуте
    05 - Встреча
    06 - Песенка для всех
    07 - Мамина пластинка
    08 - Дальняя песня
    09 - Проходят годы
    10 - Дружить нам надо
    11 - Двадцать третий век (bonus)

    1980 Музыкальный глобус

    1. Никогда не поверю (Bjorklund -Forsey - Jay. русский текст В. Лугового)
    2. Мона Лиза (Schenker - Mogg)
    3. Уходило лето (Soja - русский текст В. Лугового)
    4. Люба - Любовь (P. Curtis -русский текст В. Харитонова)
    5. Школьная пора (S. Wonder - русский текст В. Харитонова)
    6. Нет я не жду (C. Norman - P. Spencer. русский текст В. Лугового)
    7. Что ты хочешь мне сказать (W. Theunissen -русский текст В. Лугового)
    8. В последний раз (J. L. Perales -русский текст В. Лугового)
    9. Доброте предела нет (R. Glover - E. Hardin. русский текст В. Лугового)

    1985 Дискозал (магнитоальбом)

    1. Кто, кто
    2. Я парю
    3. Дискозал
    4. Я попал на бал
    5. Колесо
    6. Клоун
    7. Томится в ожиданьи зал
    8. Все твердят
    9. Бумеранг
    10. Под солнцем и луной
    11. Орех
    12. Я не знаю

    1986 Автомобили (магнитоальбом)

    1. Автомобили
    2. Чертаново
    3. Не уходи
    4. Песней разбужу любовь
    5. Летний круиз
    6. В шутовском королевстве
    7. Бологое
    8. Баня
    9. Шарманка играет
    10. Сентябрь
    11. Осень
    12. Хочу все знать

    1986 Я в танцах не силен (магнитоальбом)

    1. Я в танцах не силен
    2. Небывальщина
    3. Треугольное сердце
    4. Там, где нас нет
    5. Эпизод
    6. Вечер при свечах
    7. Два вопроса
    8. Любви моей
    9. Остановись
    10. Море
    11. Соленое море

    1. Автомобили (В. Матецкий - М. Шабров)
    2. Вечер при свечах (Т. Петрененко - И. Шаферан)
    3. Баня (Д. Тухманов - М. Танич)
    4. Гранитный город (Р. Паулс - И. Резник)
    5. Корабли (музыка и слова В. Матецкого)
    6. Не волнуйтесь, тетя (В. Добрынин - Л. Дербенев)
    7. Скоро (П. Слободкин - М. Шабров)
    8. Жил в Африке слон (В. Матецкий. П. Слободкин - М. Шабров)
    9. Чертаново (В. Матецкий - М. Танич)
    10. Шутовское королевство (В. Матецкий - В. Сауткин)
    11. Скажет девчонка (бонус)
    12. Летайте самолётами Аэрофлота (бонус)

    1988 Розовые розы (магнитоальбом)

    1. Розовые розы
    2. Пустыня
    3. Родня
    4. Звездочет
    5. На Канарских островах
    6. Клоун
    7. Прогноз погоды
    8. Чашка чая
    9. Розита
    10. Диета

    1996 Песни Вячеслава Добрынина

    1. На земле живет любовь
    2. Ни минуты покоя
    3. Мелочи жизни
    4. Напиши мне письмо
    5. Золотой ключик
    6. Розита
    7. Чашка чая
    8. Люби меня, как я тебя
    9. Хочу все знать
    10. Бологое
    11. Пришла пора
    12. А дело было так
    13. Рыжий клоун
    14. Не волнуйтесь, тетя

    1 Любовь - огромная страна
    2 Школьная пора
    3 Мамина пластинка
    4 Баня
    5 Алешкина любовь
    6 Ты ко мне не подходи
    7 Напиши мне письмо
    8 Когда молчим вдвоем
    9 Если б не суббота
    10 Люди встречаются
    11 Бродячие артисты

    Скачать ВИА Весёлые Ребята - Как прекрасен этот мир (2013) AAC, 256 кб

    Год: 2013
    Жанр: Pop
    Продолжительность: 00:55:36
    Кодек: AAC
    Битрейт: 256 кб/с
    Тип битрейта: VBR
    Исходник: FLAC (Lossless)
    Треклист:
    01. Старинная рапсодия (03:34)
    02. Что такого (03:20)
    03. Полоса невезения (03:27)
    04. За белою рекою (04:47)
    05. Варшавский дождь (02:50)
    06. Н. Паганини - Каприс № 24 (06:09)
    07. Вечер при свечах (06:17)
    08. Посреди зимы (03:39)
    09. И.С. Бах - Токката d-moll (04:37)
    10. Как прекрасен этот мир (03:56)
    11. Снимем маски, господа (03:57)
    12. Больше не встречу (04:43)
    13. Только любовь (04:14)

    Mediainfo:

    Общее
    Полное имя : C:\Веселые Ребята - Как прекрасен этот мир (2013)\01. Веселые Ребята - Старинная рапсодия.m4a
    Формат : MPEG-4
    Профиль формата : Base Media / Version 2
    Идентификатор кодека : mp42
    Размер файла : 7,40 Мбайт
    Продолжительность : 3 м. 34 с.
    Режим общего битрейта : Переменный
    Общий поток : 290 Кбит/сек
    Альбом : Как прекрасен этот мир
    Альбом/Исполнитель : Веселые Ребята
    Часть/Положение : 1
    Часть/Всего : 1
    Трек : Старинная рапсодия
    Трек/Положение : 1
    Трек/Всего : 13
    Исполнитель : Веселые Ребята
    Жанр : Pop
    Дата записи : 2013
    Дата кодирования : UTC 2014-02-08 07:01:36
    Дата пометки : UTC 2014-02-08 11:04:57
    Обложка : Yes
    DISCID : 990D080D
    soal : Как прекрасен этот мир
    soar : Веселые Ребята
    soaa : Веселые Ребята
    Аудио
    Идентификатор : 1
    Формат : AAC
    Формат/Информация : Advanced Audio Codec
    Профиль формата : LC
    Идентификатор кодека : 40
    Продолжительность : 3 м. 34 с.
    Вид битрейта : Переменный
    Битрейт : 288 Кбит/сек
    Максимальный битрейт : 325 Кбит/сек
    Каналы : 2 канала
    Расположение каналов : Front: L R
    Частота : 44,1 КГц
    Метод сжатия : С потерями
    Размер потока : 7,26 Мбайт (98%)
    Библиотека кодирования : Nero AAC codec 1.5.4.0
    Дата кодирования : UTC 2014-02-08 07:01:36
    Дата пометки : UTC 2014-02-08 11:04:57
    Меню
    00:00:00.059 : Старинная рапсодия
    Общее
    Полное имя : C:\Веселые Ребята - Как прекрасен этот мир (2013)\02. Веселые Ребята - Что такого.m4a
    Формат : MPEG-4
    Профиль формата : Base Media / Version 2
    Идентификатор кодека : mp42
    Размер файла : 7,04 Мбайт
    Продолжительность : 3 м. 20 с.
    Режим общего битрейта : Переменный
    Общий поток : 294 Кбит/сек
    Альбом : Как прекрасен этот мир
    Альбом/Исполнитель : Веселые Ребята
    Часть/Положение : 1
    Часть/Всего : 1
    Трек : Что такого
    Трек/Положение : 2
    Трек/Всего : 13
    Исполнитель : Веселые Ребята
    Жанр : Pop
    Дата записи : 2013
    Дата кодирования : UTC 2014-02-08 07:01:36
    Дата пометки : UTC 2014-02-08 11:04:57
    Обложка : Yes
    DISCID : 990D080D
    soal : Как прекрасен этот мир
    soar : Веселые Ребята
    soaa : Веселые Ребята
    Аудио
    Идентификатор : 1
    Формат : AAC
    Формат/Информация : Advanced Audio Codec
    Профиль формата : LC
    Идентификатор кодека : 40
    Продолжительность : 3 м. 20 с.
    Вид битрейта : Переменный
    Битрейт : 288 Кбит/сек
    Максимальный битрейт : 328 Кбит/сек
    Каналы : 2 канала
    Расположение каналов : Front: L R
    Частота : 44,1 КГц
    Метод сжатия : С потерями
    Размер потока : 6,89 Мбайт (98%)
    Библиотека кодирования : Nero AAC codec 1.5.4.0
    Дата кодирования : UTC 2014-02-08 07:01:36
    Дата пометки : UTC 2014-02-08 11:04:57
    Меню
    00:00:00.059 : Что такого
    Общее
    Полное имя : C:\Веселые Ребята - Как прекрасен этот мир (2013)\03. Веселые Ребята - Полоса невезения.m4a
    Формат : MPEG-4
    Профиль формата : Base Media / Version 2
    Идентификатор кодека : mp42
    Размер файла : 7,24 Мбайт
    Продолжительность : 3 м. 27 с.
    Режим общего битрейта : Переменный
    Общий поток : 292 Кбит/сек
    Альбом : Как прекрасен этот мир
    Альбом/Исполнитель : Веселые Ребята
    Часть/Положение : 1
    Часть/Всего : 1
    Трек : Полоса невезения
    Трек/Положение : 3
    Трек/Всего : 13
    Исполнитель : Веселые Ребята
    Жанр : Pop
    Дата записи : 2013
    Дата кодирования : UTC 2014-02-08 07:01:36
    Дата пометки : UTC 2014-02-08 11:04:57
    Обложка : Yes
    DISCID : 990D080D
    soal : Как прекрасен этот мир
    soar : Веселые Ребята
    soaa : Веселые Ребята
    Аудио
    Идентификатор : 1
    Формат : AAC
    Формат/Информация : Advanced Audio Codec
    Профиль формата : LC
    Идентификатор кодека : 40
    Продолжительность : 3 м. 27 с.
    Вид битрейта : Переменный
    Битрейт : 288 Кбит/сек
    Максимальный битрейт : 321 Кбит/сек
    Каналы : 2 канала
    Расположение каналов : Front: L R
    Частота : 44,1 КГц
    Метод сжатия : С потерями
    Размер потока : 7,09 Мбайт (98%)
    Библиотека кодирования : Nero AAC codec 1.5.4.0
    Дата кодирования : UTC 2014-02-08 07:01:36
    Дата пометки : UTC 2014-02-08 11:04:57
    Меню
    00:00:00.059 : Полоса невезения
    Общее
    Полное имя : C:\Веселые Ребята - Как прекрасен этот мир (2013)\04. Веселые Ребята - За белою рекою.m4a
    Формат : MPEG-4
    Профиль формата : Base Media / Version 2
    Идентификатор кодека : mp42
    Размер файла : 9,92 Мбайт
    Продолжительность : 4 м. 47 с.
    Режим общего битрейта : Переменный
    Общий поток : 290 Кбит/сек
    Альбом : Как прекрасен этот мир
    Альбом/Исполнитель : Веселые Ребята
    Часть/Положение : 1
    Часть/Всего : 1
    Трек : За белою рекою
    Трек/Положение : 4
    Трек/Всего : 13
    Исполнитель : Веселые Ребята
    Жанр : Pop
    Дата записи : 2013
    Дата кодирования : UTC 2014-02-08 07:01:36
    Дата пометки : UTC 2014-02-08 11:04:57
    Обложка : Yes
    DISCID : 990D080D
    soal : Как прекрасен этот мир
    soar : Веселые Ребята
    soaa : Веселые Ребята
    Аудио
    Идентификатор : 1
    Формат : AAC
    Формат/Информация : Advanced Audio Codec
    Профиль формата : LC
    Идентификатор кодека : 40
    Продолжительность : 4 м. 47 с.
    Вид битрейта : Переменный
    Битрейт : 288 Кбит/сек
    Максимальный битрейт : 323 Кбит/сек
    Каналы : 2 канала
    Расположение каналов : Front: L R
    Частота : 44,1 КГц
    Метод сжатия : С потерями
    Размер потока : 9,76 Мбайт (98%)
    Библиотека кодирования : Nero AAC codec 1.5.4.0
    Дата кодирования : UTC 2014-02-08 07:01:36
    Дата пометки : UTC 2014-02-08 11:04:57
    Меню
    00:00:00.059 : За белою рекою
    Общее
    Полное имя : C:\Веселые Ребята - Как прекрасен этот мир (2013)\05. Веселые Ребята - Варшавский дождь.m4a
    Формат : MPEG-4
    Профиль формата : Base Media / Version 2
    Идентификатор кодека : mp42
    Размер файла : 5,78 Мбайт
    Продолжительность : 2 м. 50 с.
    Режим общего битрейта : Переменный
    Общий поток : 285 Кбит/сек
    Альбом : Как прекрасен этот мир
    Альбом/Исполнитель : Веселые Ребята
    Часть/Положение : 1
    Часть/Всего : 1
    Трек : Варшавский дождь
    Трек/Положение : 5
    Трек/Всего : 13
    Исполнитель : Веселые Ребята
    Жанр : Pop
    Дата записи : 2013
    Дата кодирования : UTC 2014-02-08 07:01:46
    Дата пометки : UTC 2014-02-08 11:04:57
    Обложка : Yes
    DISCID : 990D080D
    soal : Как прекрасен этот мир
    soar : Веселые Ребята
    soaa : Веселые Ребята
    Аудио
    Идентификатор : 1
    Формат : AAC
    Формат/Информация : Advanced Audio Codec
    Профиль формата : LC
    Идентификатор кодека : 40
    Продолжительность : 2 м. 50 с.
    Вид битрейта : Переменный
    Битрейт : 278 Кбит/сек
    Максимальный битрейт : 322 Кбит/сек
    Каналы : 2 канала
    Расположение каналов : Front: L R
    Частота : 44,1 КГц
    Метод сжатия : С потерями
    Размер потока : 5,64 Мбайт (98%)
    Библиотека кодирования : Nero AAC codec 1.5.4.0
    Дата кодирования : UTC 2014-02-08 07:01:46
    Дата пометки : UTC 2014-02-08 11:04:57
    Меню
    00:00:00.059 : Варшавский дождь
    Общее
    Полное имя : C:\Веселые Ребята - Как прекрасен этот мир (2013)\06. Веселые Ребята - Н. Паганини - Каприс № 24.m4a
    Формат : MPEG-4
    Профиль формата : Base Media / Version 2
    Идентификатор кодека : mp42
    Размер файла : 12,9 Мбайт
    Продолжительность : 6 м. 9 с.
    Режим общего битрейта : Переменный
    Общий поток : 294 Кбит/сек
    Альбом : Как прекрасен этот мир
    Альбом/Исполнитель : Веселые Ребята
    Часть/Положение : 1
    Часть/Всего : 1
    Трек : Н. Паганини - Каприс № 24
    Трек/Положение : 6
    Трек/Всего : 13
    Исполнитель : Веселые Ребята
    Жанр : Pop
    Дата записи : 2013
    Дата кодирования : UTC 2014-02-08 07:01:46
    Дата пометки : UTC 2014-02-08 11:04:57
    Обложка : Yes
    DISCID : 990D080D
    soal : Как прекрасен этот мир
    soar : Веселые Ребята
    soaa : Веселые Ребята
    Аудио
    Идентификатор : 1
    Формат : AAC
    Формат/Информация : Advanced Audio Codec
    Профиль формата : LC
    Идентификатор кодека : 40
    Продолжительность : 6 м. 9 с.
    Вид битрейта : Переменный
    Битрейт : 288 Кбит/сек
    Максимальный битрейт : 320 Кбит/сек
    Каналы : 2 канала
    Расположение каналов : Front: L R
    Частота : 44,1 КГц
    Метод сжатия : С потерями
    Размер потока : 12,8 Мбайт (99%)
    Библиотека кодирования : Nero AAC codec 1.5.4.0
    Дата кодирования : UTC 2014-02-08 07:01:46
    Дата пометки : UTC 2014-02-08 11:04:57
    Меню
    00:00:00.059 : Н. Паганини - Каприс № 24
    Общее
    Полное имя : C:\Веселые Ребята - Как прекрасен этот мир (2013)\07. Веселые Ребята - Вечер при свечах.m4a
    Формат : MPEG-4
    Профиль формата : Base Media / Version 2
    Идентификатор кодека : mp42
    Размер файла : 13,0 Мбайт
    Продолжительность : 6 м. 17 с.
    Режим общего битрейта : Переменный
    Общий поток : 289 Кбит/сек
    Альбом : Как прекрасен этот мир
    Альбом/Исполнитель : Веселые Ребята
    Часть/Положение : 1
    Часть/Всего : 1
    Трек : Вечер при свечах
    Трек/Положение : 7
    Трек/Всего : 13
    Исполнитель : Веселые Ребята
    Жанр : Pop
    Дата записи : 2013
    Дата кодирования : UTC 2014-02-08 07:01:46
    Дата пометки : UTC 2014-02-08 11:04:57
    Обложка : Yes
    DISCID : 990D080D
    soal : Как прекрасен этот мир
    soar : Веселые Ребята
    soaa : Веселые Ребята
    Аудио
    Идентификатор : 1
    Формат : AAC
    Формат/Информация : Advanced Audio Codec
    Профиль формата : LC
    Идентификатор кодека : 40
    Продолжительность : 6 м. 17 с.
    Вид битрейта : Переменный
    Битрейт : 288 Кбит/сек
    Максимальный битрейт : 340 Кбит/сек
    Каналы : 2 канала
    Расположение каналов : Front: L R
    Частота : 44,1 КГц
    Метод сжатия : С потерями
    Размер потока : 12,8 Мбайт (99%)
    Библиотека кодирования : Nero AAC codec 1.5.4.0
    Дата кодирования : UTC 2014-02-08 07:01:46
    Дата пометки : UTC 2014-02-08 11:04:57
    Меню
    00:00:00.059 : Вечер при свечах
    Общее
    Полное имя : C:\Веселые Ребята - Как прекрасен этот мир (2013)\08. Веселые Ребята - Посреди зимы.m4a
    Формат : MPEG-4
    Профиль формата : Base Media / Version 2
    Идентификатор кодека : mp42
    Размер файла : 7,43 Мбайт
    Продолжительность : 3 м. 39 с.
    Режим общего битрейта : Переменный
    Общий поток : 285 Кбит/сек
    Альбом : Как прекрасен этот мир
    Альбом/Исполнитель : Веселые Ребята
    Часть/Положение : 1
    Часть/Всего : 1
    Трек : Посреди зимы
    Трек/Положение : 8
    Трек/Всего : 13
    Исполнитель : Веселые Ребята
    Жанр : Pop
    Дата записи : 2013
    Дата кодирования : UTC 2014-02-08 07:01:51
    Дата пометки : UTC 2014-02-08 11:04:57
    Обложка : Yes
    DISCID : 990D080D
    soal : Как прекрасен этот мир
    soar : Веселые Ребята
    soaa : Веселые Ребята
    Аудио
    Идентификатор : 1
    Формат : AAC
    Формат/Информация : Advanced Audio Codec
    Профиль формата : LC
    Идентификатор кодека : 40
    Продолжительность : 3 м. 39 с.
    Вид битрейта : Переменный
    Битрейт : 279 Кбит/сек
    Максимальный битрейт : 334 Кбит/сек
    Каналы : 2 канала
    Расположение каналов : Front: L R
    Частота : 44,1 КГц
    Метод сжатия : С потерями
    Размер потока : 7,28 Мбайт (98%)
    Библиотека кодирования : Nero AAC codec 1.5.4.0
    Дата кодирования : UTC 2014-02-08 07:01:51
    Дата пометки : UTC 2014-02-08 11:04:57
    Меню
    00:00:00.059 : Посреди зимы
    Общее
    Полное имя : C:\Веселые Ребята - Как прекрасен этот мир (2013)\09. Веселые Ребята - И.С. Бах - Токката d-moll.m4a
    Формат : MPEG-4
    Профиль формата : Base Media / Version 2
    Идентификатор кодека : mp42
    Размер файла : 9,69 Мбайт
    Продолжительность : 4 м. 37 с.
    Режим общего битрейта : Переменный
    Общий поток : 293 Кбит/сек
    Альбом : Как прекрасен этот мир
    Альбом/Исполнитель : Веселые Ребята
    Часть/Положение : 1
    Часть/Всего : 1
    Трек : И.С. Бах - Токката d-moll
    Трек/Положение : 9
    Трек/Всего : 13
    Исполнитель : Веселые Ребята
    Жанр : Pop
    Дата записи : 2013
    Дата кодирования : UTC 2014-02-08 07:01:57
    Дата пометки : UTC 2014-02-08 11:04:57
    Обложка : Yes
    DISCID : 990D080D
    soal : Как прекрасен этот мир
    soar : Веселые Ребята
    soaa : Веселые Ребята
    Аудио
    Идентификатор : 1
    Формат : AAC
    Формат/Информация : Advanced Audio Codec
    Профиль формата : LC
    Идентификатор кодека : 40
    Продолжительность : 4 м. 37 с.
    Вид битрейта : Переменный
    Битрейт : 288 Кбит/сек
    Максимальный битрейт : 330 Кбит/сек
    Каналы : 2 канала
    Расположение каналов : Front: L R
    Частота : 44,1 КГц
    Метод сжатия : С потерями
    Размер потока : 9,53 Мбайт (98%)
    Библиотека кодирования : Nero AAC codec 1.5.4.0
    Дата кодирования : UTC 2014-02-08 07:01:57
    Дата пометки : UTC 2014-02-08 11:04:57
    Меню
    00:00:00.059 : И.С. Бах - Токката d-moll
    Общее
    Полное имя : C:\Веселые Ребята - Как прекрасен этот мир (2013)\10. Веселые Ребята - Как прекрасен этот мир.m4a
    Формат : MPEG-4
    Профиль формата : Base Media / Version 2
    Идентификатор кодека : mp42
    Размер файла : 8,33 Мбайт
    Продолжительность : 3 м. 56 с.
    Режим общего битрейта : Переменный
    Общий поток : 295 Кбит/сек
    Альбом : Как прекрасен этот мир
    Альбом/Исполнитель : Веселые Ребята
    Часть/Положение : 1
    Часть/Всего : 1
    Трек : Как прекрасен этот мир
    Трек/Положение : 10
    Трек/Всего : 13
    Исполнитель : Веселые Ребята
    Жанр : Pop
    Дата записи : 2013
    Дата кодирования : UTC 2014-02-08 07:02:05
    Дата пометки : UTC 2014-02-08 11:04:57
    Обложка : Yes
    DISCID : 990D080D
    soal : Как прекрасен этот мир
    soar : Веселые Ребята
    soaa : Веселые Ребята
    Аудио
    Идентификатор : 1
    Формат : AAC
    Формат/Информация : Advanced Audio Codec
    Профиль формата : LC
    Идентификатор кодека : 40
    Продолжительность : 3 м. 56 с.
    Вид битрейта : Переменный
    Битрейт : 288 Кбит/сек
    Максимальный битрейт : 336 Кбит/сек
    Каналы : 2 канала
    Расположение каналов : Front: L R
    Частота : 44,1 КГц
    Метод сжатия : С потерями
    Размер потока : 8,18 Мбайт (98%)
    Библиотека кодирования : Nero AAC codec 1.5.4.0
    Дата кодирования : UTC 2014-02-08 07:02:05
    Дата пометки : UTC 2014-02-08 11:04:57
    Меню
    00:00:00.059 : Как прекрасен этот мир
    Общее
    Полное имя : C:\Веселые Ребята - Как прекрасен этот мир (2013)\11. Веселые Ребята - Снимем маски, господа.m4a
    Формат : MPEG-4
    Профиль формата : Base Media / Version 2
    Идентификатор кодека : mp42
    Размер файла : 8,13 Мбайт
    Продолжительность : 3 м. 57 с.
    Режим общего битрейта : Переменный
    Общий поток : 287 Кбит/сек
    Альбом : Как прекрасен этот мир
    Альбом/Исполнитель : Веселые Ребята
    Часть/Положение : 1
    Часть/Всего : 1
    Трек : Снимем маски, господа
    Трек/Положение : 11
    Трек/Всего : 13
    Исполнитель : Веселые Ребята
    Жанр : Pop
    Дата записи : 2013
    Дата кодирования : UTC 2014-02-08 07:02:07
    Дата пометки : UTC 2014-02-08 11:04:57
    Обложка : Yes
    DISCID : 990D080D
    soal : Как прекрасен этот мир
    soar : Веселые Ребята
    soaa : Веселые Ребята
    Аудио
    Идентификатор : 1
    Формат : AAC
    Формат/Информация : Advanced Audio Codec
    Профиль формата : LC
    Идентификатор кодека : 40
    Продолжительность : 3 м. 57 с.
    Вид битрейта : Переменный
    Битрейт : 282 Кбит/сек
    Максимальный битрейт : 329 Кбит/сек
    Каналы : 2 канала
    Расположение каналов : Front: L R
    Частота : 44,1 КГц
    Метод сжатия : С потерями
    Размер потока : 7,97 Мбайт (98%)
    Библиотека кодирования : Nero AAC codec 1.5.4.0
    Дата кодирования : UTC 2014-02-08 07:02:07
    Дата пометки : UTC 2014-02-08 11:04:57
    Меню
    00:00:00.059 : Снимем маски, господа
    Общее
    Полное имя : C:\Веселые Ребята - Как прекрасен этот мир (2013)\12. Веселые Ребята - Больше не встречу.m4a
    Формат : MPEG-4
    Профиль формата : Base Media / Version 2
    Идентификатор кодека : mp42
    Размер файла : 9,97 Мбайт
    Продолжительность : 4 м. 43 с.
    Режим общего битрейта : Переменный
    Общий поток : 295 Кбит/сек
    Альбом : Как прекрасен этот мир
    Альбом/Исполнитель : Веселые Ребята
    Часть/Положение : 1
    Часть/Всего : 1
    Трек : Больше не встречу
    Трек/Положение : 12
    Трек/Всего : 13
    Исполнитель : Веселые Ребята
    Жанр : Pop
    Дата записи : 2013
    Дата кодирования : UTC 2014-02-08 07:02:10
    Дата пометки : UTC 2014-02-08 11:04:57
    Обложка : Yes
    DISCID : 990D080D
    soal : Как прекрасен этот мир
    soar : Веселые Ребята
    soaa : Веселые Ребята
    Аудио
    Идентификатор : 1
    Формат : AAC
    Формат/Информация : Advanced Audio Codec
    Профиль формата : LC
    Идентификатор кодека : 40
    Продолжительность : 4 м. 43 с.
    Вид битрейта : Переменный
    Битрейт : 288 Кбит/сек
    Максимальный битрейт : 339 Кбит/сек
    Каналы : 2 канала
    Расположение каналов : Front: L R
    Частота : 44,1 КГц
    Метод сжатия : С потерями
    Размер потока : 9,81 Мбайт (98%)
    Библиотека кодирования : Nero AAC codec 1.5.4.0
    Дата кодирования : UTC 2014-02-08 07:02:10
    Дата пометки : UTC 2014-02-08 11:04:57
    Меню
    00:00:00.059 : Больше не встречу
    Общее
    Полное имя : C:\Веселые Ребята - Как прекрасен этот мир (2013)\13. Веселые Ребята - Только любовь.m4a
    Формат : MPEG-4
    Профиль формата : Base Media / Version 2
    Идентификатор кодека : mp42
    Размер файла : 8,93 Мбайт
    Продолжительность : 4 м. 14 с.
    Режим общего битрейта : Переменный
    Общий поток : 294 Кбит/сек
    Альбом : Как прекрасен этот мир
    Альбом/Исполнитель : Веселые Ребята
    Часть/Положение : 1
    Часть/Всего : 1
    Трек : Только любовь
    Трек/Положение : 13
    Трек/Всего : 13
    Исполнитель : Веселые Ребята
    Жанр : Pop
    Дата записи : 2013
    Дата кодирования : UTC 2014-02-08 07:02:14
    Дата пометки : UTC 2014-02-08 11:04:57
    Обложка : Yes
    DISCID : 990D080D
    soal : Как прекрасен этот мир
    soar : Веселые Ребята
    soaa : Веселые Ребята
    Аудио
    Идентификатор : 1
    Формат : AAC
    Формат/Информация : Advanced Audio Codec
    Профиль формата : LC
    Идентификатор кодека : 40
    Продолжительность : 4 м. 14 с.
    Вид битрейта : Переменный
    Битрейт : 288 Кбит/сек
    Максимальный битрейт : 334 Кбит/сек
    Каналы : 2 канала
    Расположение каналов : Front: L R
    Частота : 44,1 КГц
    Метод сжатия : С потерями
    Размер потока : 8,77 Мбайт (98%)
    Библиотека кодирования : Nero AAC codec 1.5.4.0
    Дата кодирования : UTC 2014-02-08 07:02:14
    Дата пометки : UTC 2014-02-08 11:04:57

    Спектрограмма:

    Время раздачи: ( с 09:00 - 20:00 - до первых десяти сидов )